#TITLE:Bad Apple;
#SUBTITLE:Initiate;
#ARTIST:Masayoshi Minoshima;
#TITLETRANSLIT:;
#SUBTITLETRANSLIT:;
#ARTISTTRANSLIT:;
#CREDIT:;
#BANNER:ba-bn.jpg;
#BACKGROUND:ba-bg.jpg;
#LYRICSPATH:;
#CDTITLE:cdtitle.png;
#MUSIC:bad apple-clip.ogg;
#OFFSET:0.000;
#SAMPLESTART:100.050;
#SAMPLELENGTH:12.000;
#SELECTABLE:YES;
#BPMS:0.000=138.000,35.000=69.000,35.333=276.000,36.000=138.000,96.000=69.000,96.333=276.000,97.000=69.000,97.333=276.000,98.000=138.000,128.000=69.000,128.333=276.000,129.000=69.000,129.333=276.000,130.000=69.000,130.333=276.000,131.000=69.000,131.333=276.000,132.000=138.000,196.000=69.000,228.000=138.000,288.000=69.000,288.333=276.000,289.000=69.000,289.333=276.000,290.000=138.000,320.000=69.000,320.333=276.000,321.000=69.000,321.333=276.000,322.000=69.000,322.333=276.000,323.000=69.000,323.333=276.000,324.000=138.000,388.000=69.000,420.000=138.000;
#STOPS:;
#BGCHANGES:0.688=bad apple-clip.avi=1.000=0=0=1,
435.500=ba-bg.jpg=1.000=1=0=1,
99999=-nosongbg-=1.000=0=0=0 // don't automatically add -songbackground-
;
// cache tags:
#FIRSTBEAT:4.000;
#LASTBEAT:435.500;
#SONGFILENAME:Songs/SDO pack 2/bad apple-clip/bad apple-clip.sm;
#HASMUSIC:1;
#HASBANNER:1;
#MUSICLENGTH:219.130;
// end cache tags

//---------------dance-single - ----------------
#NOTES:
     dance-single:
     :
     Hard:
     9:
     1.000,1.000,1.000,0.680,0.691,1110.000,483.000,149.000,0.000,44.000:
0000
0000
0000
0000
,
1001
0000
0000
0000
0000
0000
0001
0000
0000
0000
0000
0000
1001
0000
0000
0100
0000
0000
0010
0000
0000
0001
0000
0000
0110
0000
0000
0000
0000
0000
0001
0000
0000
0000
0000
0000
0110
0000
0000
0000
0110
0000
0000
0000
0110
0000
0000
0000
,
0110
0000
0001
0000
1100
0010
0100
1000
0011
0000
0001
0000
1001
0000
0101
0000
,
1001
0000
0000
0000
0000
0000
0001
0000
0000
0000
0000
0000
0001
0000
0000
1000
0000
0000
0100
0000
0000
0010
0000
0000
1001
0000
0000
0000
0000
0000
0001
0000
0000
0000
0000
0000
1001
0000
0000
0000
1001
0000
0000
0000
1001
0000
0000
0000
,
1001
0000
0001
0000
0001
0100
0010
0001
1100
0000
0001
0000
0101
0000
0011
0000
,
1001
0000
0000
0000
0000
0000
0001
0000
0000
0000
0000
0000
1000
0000
0000
0001
0000
0000
0010
0000
0000
0100
0000
0000
0011
0000
0000
0000
0000
0000
0001
0000
0000
0000
0000
0000
0110
0000
0000
0000
0110
0000
0000
0000
0110
0000
0000
0000
,
0110
0000
0001
0000
1000
0001
0010
0100
1001
0000
0001
0000
1001
0000
1010
0000
,
1001
0000
0000
0000
0000
0000
0001
0000
0000
0000
0000
0000
0001
0000
0000
1000
0000
0000
0100
0000
0000
0010
0000
0000
1001
0000
0000
0000
0000
0000
0001
0000
0000
0000
0000
0000
1001
0000
0000
0000
1001
0000
0000
0000
1001
0000
0000
0000
,
1001
0000
0001
0000
0100
0001
0100
1000
0110
0000
0000
0000
1001
0000
0000
0000
,
1002
0000
0020
0000
1133
0000
0001
0010
2100
0000
0200
0000
3311
0000
0001
0010
,
2100
0000
0200
0000
3311
0000
0001
0010
1100
0010
0001
0010
1100
0010
1001
0010
,
2100
0000
0200
0000
3311
0000
1000
0100
0012
0000
0020
0000
1133
0000
1000
0100
,
0012
0000
0020
0000
1133
0000
1000
0100
0011
0100
1000
0100
0011
0100
1001
0100
,
0012
0000
2000
0000
3113
0000
0001
1000
0210
0000
0020
0000
1331
0000
0001
1000
,
0210
0000
0020
0000
1331
0000
0001
0100
1001
0100
0001
0100
1001
0100
1001
0100
,
2001
0000
0002
0000
3113
0000
0001
0100
2001
0000
0002
0000
3113
0000
0001
0100
,
2001
0000
0000
0000
0000
0000
0002
0000
0000
0000
0000
0000
3113
0000
0000
0000
0000
0000
1000
0000
0000
0001
0000
0000
0110
0000
0000
0000
0110
0000
0000
0000
0110
0000
0000
0000
0110
0000
0000
0000
0110
0000
0000
0000
0110
0000
0000
0000
,
0110
0000
0001
0000
1001
0000
0100
0000
0012
0000
0000
0003
1100
0000
0100
0000
,
2001
0000
0000
3000
0102
0000
0000
0003
1100
0000
0100
0000
0011
0000
0110
0000
,
1001
0000
0100
0000
1001
0000
0100
0000
0021
0000
0000
0030
1001
0000
0100
0000
,
1001
1000
1001
0100
0011
0110
1001
0100
,
1002
0000
0100
0003
1010
0000
0100
0000
0021
0000
0000
0030
1001
0000
0100
0000
,
1100
0001
0110
1000
1001
0100
0011
0110
,
1001
0100
0011
0100
1001
0100
1100
0100
,
0102
0000
0000
0000
0000
0000
0000
0000
0000
0003
0000
0000
1020
0000
0000
0000
0000
0000
0000
0000
0000
0030
0000
0000
0211
0000
0000
0000
0011
0000
0000
0000
0011
0300
0000
0000
2011
0000
0000
0000
0011
0000
0000
0000
0011
3000
0000
0000
,
0011
0000
0100
0000
0101
0000
0010
0000
2001
0000
0010
3000
0101
0000
0100
0000
,
1001
0000
0100
0000
2001
0000
0001
3000
1100
0000
0010
0000
1100
0000
0110
0000
,
1001
0000
0001
0000
1100
0000
0001
0000
2100
0000
0001
3000
0101
0000
1000
0000
,
1001
0010
1001
0100
1100
0110
0101
0001
,
0101
0000
0010
0000
1010
0000
0100
0000
0012
0000
0100
0003
1001
0000
0100
0000
,
1010
0001
1100
0100
0101
0100
1001
1100
,
0011
0100
1001
0100
1100
0100
0101
0010
,
0120
0000
0000
0030
1002
0000
0000
0003
0210
0000
0000
0300
2001
0000
0000
3000
,
1001
0100
0010
0001
1100
0001
0110
0000
0201
0000
0010
0300
1010
0000
0101
0000
,
1010
0100
0010
0001
1100
0010
1001
0000
1020
0000
0100
0030
1001
0000
0011
0000
,
0110
0001
1000
0010
0101
1000
0011
0000
2100
0000
0100
3000
1001
0000
1100
0000
,
1010
0001
0100
0001
1100
0010
1001
0000
0021
0000
1001
0030
0101
0000
0011
0000
,
1001
0010
1000
0010
0101
1000
0110
0000
0102
0000
0010
0003
1100
0000
0110
0000
,
0011
0100
1000
0010
0101
0010
1001
0000
2001
0000
0010
3000
0101
0000
1010
0000
,
0101
0010
1000
0001
1100
0001
1010
0000
1020
0000
0100
0030
0011
0000
1100
0000
,
0101
0000
0000
0010
0000
0000
1000
0000
0000
0001
0000
0000
1100
0000
0000
0010
0000
0000
0101
0000
0000
0000
0000
0000
0110
0000
0000
0000
0110
0000
0000
0000
0110
0000
0000
0000
0110
0000
0000
0000
0110
0000
0000
0000
0110
0000
0000
0000
,
1001
0010
0100
1000
0101
0010
1001
0000
0021
0000
0000
0030
1001
0000
0101
0000
,
1010
0100
0001
1000
0101
1000
0101
0000
2001
0000
0000
3000
1001
0000
1100
0000
,
0101
0010
1000
0100
0011
0100
1001
0000
1002
0000
0000
0003
1001
0000
1100
0000
,
0101
1000
0100
0010
1001
0010
0101
0000
2001
0000
0110
3000
1100
0000
0101
0000
,
1010
0100
0010
0001
1100
0001
0110
0000
1200
0000
0000
0300
1001
0000
1001
0000
,
0110
1000
0100
0001
0110
0001
0110
0000
0021
0000
0000
0030
1001
0000
1100
0000
,
2001
0000
3020
0000
1230
0000
0010
0300
0021
0000
0000
0030
1001
0000
0100
0000
,
1001
0000
0000
0110
0000
0000
1100
0000
0000
0101
0000
0000
0011
0000
0110
0000
1100
0000
0110
0000
0011
0000
0110
0000
,
1100
0001
0010
0100
2000
0000
3001
0010
0100
1000
0100
0010
0002
0000
1003
0100
,
0010
0001
0010
0100
2000
0000
3100
0010
0001
0010
0100
1000
0200
0000
0310
0001
,
0010
0100
1000
0100
0020
0000
0130
0010
0001
0010
0100
1000
0200
0000
1300
0100
,
0010
0001
0010
0100
2000
0000
3001
0010
0100
1000
0100
0010
0002
0000
0103
1000
,
0201
0010
1302
0100
1023
0000
1030
0100
0010
0001
0010
0100
2000
0000
3100
0010
,
0001
0010
0100
1000
0200
0000
0310
0100
1000
0100
0010
0001
0020
0000
0130
0010
,
0001
0010
0100
1000
0200
0000
1300
0100
0010
0001
0010
0100
2000
0000
3100
0010
,
0001
0010
0100
1000
0200
0000
0301
0010
0100
1000
0100
0010
1001
0000
1001
0000
,
2001
0000
0200
0000
3311
0100
0001
0010
2100
0000
0200
0000
3311
0100
0001
0010
,
2100
0000
0200
0000
3311
0100
0001
0010
1100
0001
0010
0100
0011
0100
1001
0100
,
0012
0000
0020
0000
1133
0010
1000
0100
0012
0000
0020
0000
1133
0010
1000
0100
,
0012
0000
0020
0000
1133
0010
1000
0100
0011
1000
0100
0010
1100
0010
1001
0010
,
1200
0000
0020
0000
1331
0100
0001
0010
1200
0000
0020
0000
1331
0100
0001
0010
,
1200
0000
0020
0000
1331
0100
0001
0010
1100
0001
0010
0100
0011
0100
1001
0100
,
0021
0000
0200
0000
1331
0010
1000
0100
0021
0000
0200
0000
1331
0010
1000
0100
,
0021
0000
0000
0000
0000
0000
0200
0000
0000
0000
0000
0000
1331
0000
0000
0010
0000
0000
1000
0000
0000
0100
0000
0000
1001
0000
0000
0000
1001
0000
0000
0000
1001
0000
0000
0000
1001
0000
0000
0000
1001
0000
0000
0000
1001
0000
0000
0000
,
0110
0000
0100
0000
0110
0000
1000
0000
0201
0000
0000
0300
1010
0000
1000
0000
,
0120
0000
0000
0030
1200
0000
0000
0300
1010
0000
1000
0000
0101
0000
1001
0000
,
0110
0000
1000
0000
0110
0000
1000
0000
0102
0000
0000
0003
0110
0000
1000
0000
,
0110
0010
0110
1000
0101
1001
0110
1000
,
0210
0000
1000
0300
0011
0000
1000
0000
0102
0000
0000
0003
0110
0000
1000
0000
,
1010
0100
1001
0010
0110
1000
0101
1001
,
0110
1000
0101
1000
0110
1000
1010
1000
,
1200
0000
0000
0000
0000
0000
0000
0000
0000
0300
0000
0000
0012
0000
0000
0000
0000
0000
0000
0000
0000
0003
0000
0000
2011
0000
0000
0000
0011
0000
0000
0000
0011
3000
0000
0000
0211
0000
0000
0000
0011
0000
0000
0000
0011
0300
0000
0000
,
0011
0000
1000
0000
1100
0000
0001
0000
0120
0000
0001
0030
1100
0000
1000
0000
,
0110
0000
1000
0000
0120
0000
0100
0030
1010
0000
0001
0000
1010
0000
1001
0000
,
0110
0000
0100
0000
1010
0000
0100
0000
1020
0000
0100
0030
1100
0000
0010
0000
,
0110
0001
0110
1000
1010
1001
1100
0100
,
1100
0000
0001
0000
0011
0000
1000
0000
0201
0000
1000
0300
0110
0000
1000
0000
,
0011
0100
1010
1000
1100
1000
0110
1010
,
0101
1000
0110
1000
1010
1000
1100
0001
,
1002
0000
0000
0003
0210
0000
0000
0300
2001
0000
0000
3000
0120
0000
0000
0030
,
0110
1000
0001
0100
1010
0100
1001
0000
2100
0000
0001
3000
0011
0000
1100
0000
,
0011
1000
0001
0100
1010
0001
0110
0000
0012
0000
1000
0003
0110
0000
0101
0000
,
1001
0100
0010
0001
1100
0010
0101
0000
1020
0000
1000
0030
0110
0000
1010
0000
,
0011
0100
1000
0100
1010
0001
0110
0000
0102
0000
0110
0003
1100
0000
0101
0000
,
0110
0001
0010
0001
1100
0010
1001
0000
1200
0000
0001
0300
1010
0000
1001
0000
,
0101
1000
0010
0001
1100
0001
0110
0000
0120
0000
0001
0030
1100
0000
0011
0000
,
1100
0001
0010
0100
1010
0100
0011
0000
0012
0000
1000
0003
0101
0000
1010
0000
,
1100
0000
0000
0001
0000
0000
0010
0000
0000
0100
0000
0000
1010
0000
0000
0001
0000
0000
1100
0000
0000
0000
0000
0000
1001
0000
0000
0000
1001
0000
0000
0000
1001
0000
0000
0000
1001
0000
0000
0000
1001
0000
0000
0000
1001
0000
0000
0000
,
0110
0001
1000
0010
1100
0001
0110
0000
0102
0000
0000
0003
0110
0000
1100
0000
,
0011
1000
0100
0010
1100
0010
1100
0000
0120
0000
0000
0030
0110
0000
1010
0000
,
1100
0001
0010
1000
0101
1000
0110
0000
0210
0000
0000
0300
0110
0000
1010
0000
,
1100
0010
1000
0001
0110
0001
1100
0000
0120
0000
1001
0030
1010
0000
1100
0000
,
0011
1000
0001
0100
1010
0100
1001
0000
2010
0000
0000
3000
0110
0000
0110
0000
,
1001
0010
1000
0100
1001
0100
1001
0000
0102
0000
0000
0003
0110
0000
1010
0000
,
0120
0000
0032
0000
2013
0000
0001
3000
0102
0000
0000
0003
0110
0000
1000
0000
,
0110
1001
1010
1100
0101
0000
0110
0000
,
1001
0001
1010
0100
2000
0000
3001
0010
0100
1000
0101
0010
0002
0000
1003
0100
,
0010
0001
1010
0100
2000
0000
3100
0010
0001
0010
0101
1000
0200
0000
0310
0001
,
0010
0100
1001
0100
0020
0000
0130
0010
0001
0010
0101
1000
0200
0000
1300
0100
,
0010
0000
0001
0000
1010
0000
0100
0000
2000
0000
0000
0000
3001
0000
0010
0000
0100
0000
1000
0000
0101
0000
0010
0000
1000
0100
0010
0001
0010
0100
1000
0100
,
0011
0010
1000
0100
0020
0000
1030
0100
0010
0001
0010
0100
2000
0000
3100
0010
,
0001
0010
0100
1000
0200
0000
0310
0100
1000
0100
0010
0001
0020
0000
0130
0010
,
0001
0010
0100
1000
0200
0000
1300
0100
0010
0001
0010
0100
2000
0000
3100
0010
,
0001
0010
0100
1000
0200
0000
0301
0010
0100
1000
0100
0010
1001
0000
0000
0000
,
1001
0000
0001
0000
0100
1000
0100
0000
0001
0000
0100
0010
1000
0000
0001
0000
,
0010
0000
1000
0100
0010
0000
1000
0000
0001
0000
1000
0100
1000
0000
0001
0000
,
1000
0000
0010
0100
0010
0000
0001
0000
1000
0000
0100
0010
0100
0000
1000
0000
,
0001
0000
1000
0100
1000
0000
0001
0000
1000
0000
0001
0010
0001
0000
1000
0000
;
